:
?

, , -...

-



:

Fifty Shades Darker

... ()
:  :
Transformers: The Last Knight

... ()

Logan

... 2 ()

Bleed for This

... ()

Colossal

...
 8  8
The Fate of the Furious

... ()





  (Power Rangers)

keper
« »: ()

22 2017 | 05:28
 Weta Workshop Ltd. ( !?!) .
 — http://sendfile.su/1301242


 :   (Resident Evil: The Final Chapter)

stapz
« : »: 2 ()

22 2017 | 03:01
   Resident Evil  PS, , Survival horror,         ,   , . ..


 :   (Resident Evil: The Final Chapter)

stapz
« : »: - ()

22 2017 | 03:00
   Resident Evil  PS, , Survival horror,         ,   , . ..


    (Colossal)

celeste
« »:

21 2017 | 22:36
,   «-»))


:  (Alien: Covenant)

Ragerover
«: »: ()

21 2017 | 19:57
   ?


  (Power Rangers)

audiovideofil
« »: ()

21 2017 | 17:51
  !
 YouTube,   ?

MediaInfo YouTube
Width: 1 920 pixels
Height: 1 080 pixels
Stream size: 43,7 MiB

MediaInfo KinoPoisk
Width: 1 920 pixels
Height: 1 080 pixels
Stream size: 62,7 MiB


    (Colossal)

Andrewdesignersinger
« »:

21 2017 | 11:58
.


 (Logan)

MaksimT
«»: 2 ()

21 2017 | 05:34
…      …     1000? ,     .    ,         .


 (Logan)

KsAndR705
«»: 2 ()

21 2017 | 04:41
,   . ,   ,  .  ,  ,   ,    . ,       R    , , - ,     ,     , -   ). «»           .   ,   ),     «»),  ,    ,   , «»,   .     ,     .


  2 (John Wick: Chapter Two)


«  2»: - ()

21 2017 | 01:55
     …



# A B C D E F G H I J K L M N O P Q R S T U V W X Y Z

:
»

:

>>
>>
: , , >>
>>